Адреналин 2:. Напряжение Crank: High Voltage (2009) Скачать торрент

детские дозы адреналина при анафилактическом шоке

Торрент группа

Качество: dvdrip
Озвучивание: Дублированное
Время: 1:35:00
Видео: avc (H264), 2087 kbps, 1024x544
Аудио дорожка #1: Русский дублированный, aac, 384 kbps
Аудио дорожка #2: Русский Дмитрий Пучков Гоблин, aac, 384 kbps
Аудио дорожка #3: английский, AC3 2.0, 192 kbps
General Unique ID : 202749605017173874175627129870930372452 (0x9888274F271E4C63992E4FC171736764) Complete name : E:\А\Адреналин Дилогия\Crank\Crank.2.High.Voltage.2009.bdr ip.avc.jrg.mkv Format : Matroska Format version : Version 2 File size : 2.05 GiB Duration : 1h 35mn Overall bit rate mode : Variable Overall bit rate : 3 057 Kbps Encoded date : utc 2011-02-24 16:55:20 Writing application : mkvmerge v4.1.1 ('Bouncin' Back') сборка от Jul 3 2010 22:54:08 Writing library : libebml v1.0.0 + libmatroska v1.0.0 Video ID : 1 Format : avc Format/Info : Advanced Video Codec Format profile : High@L4.1 Format settings, cabac : Yes Format settings, ReFrames : 16 frames Codec ID : V_mpeg4/iso/avc Duration : 1h 35mn Bit rate mode : Variable Nominal bit rate : 2 087 Kbps Maximum bit rate : 40.0 Mbps Width : 1 024 pixels Height : 544 pixels Display aspect ratio : 1.882 Frame rate mode : Constant Frame rate : 23.976 fps Color space : yuv Chroma subsampling : 4:2:0 Bit depth : 8 bits Scan type : Progressive Bits/(PixelFrame) : 0.156 Writing library : x264 core 113 r1884 7313bb5 Encoding settings : cabac=1 / ref=16 / deblock=1:-2:-1 / analyse=0x3:0x113 / me=umh / subme=10 / psy=1 / psy_rd=1.10:0.20 / mixed_ref=1 / me_range=32 / chroma_me=1 / trellis=2 / 8x8dct=1 / cqm=0 / deadzone=21,11 / fast_pskip=0 / chroma_qp_offset=-3 / threads=6 / sliced_threads=0 / nr=0 / decimate=1 / interlaced=0 / constrained_intra=0 / bframes=4 / b_pyramid=2 / b_adapt=2 / b_bias=0 / direct=3 / weightb=1 / open_gop=0 / weightp=2 / keyint=250 / keyint_min=23 / scenecut=40 / intra_refresh=0 / rc_lookahead=60 / rc=2pass / mbtree=1 / bitrate=2087 / ratetol=1.0 / qcomp=0.60 / qpmin=0 / qpmax=69 / qpstep=4 / cplxblur=20.0 / qblur=0.5 / ip_ratio=1.40 / aq=1:1.0 Default : Yes Forced : No Audio #1 ID : 2 Format : AC-3 Format/Info : Audio Coding 3 Mode extension : CM (complete main) Format settings, Endianness : Big Muxing mode : Header stripping Codec ID : A_AC3 Duration : 1h 35mn Bit rate mode : Constant Bit rate : 384 Kbps Channel(s) : 6 channels Channel positions : Front: L C R, Side: L R, lfe Sampling rate : 48.0 KHz Bit depth : 16 bits Compression mode : Lossy Stream size : 263 MiB (13%) Title : Дубляж Default : Yes Forced : No Audio #2 ID : 3 Format : AC-3 Format/Info : Audio Coding 3 Mode extension : CM (complete main) Format settings, Endianness : Big Muxing mode : Header stripping Codec ID : A_AC3 Duration : 1h 35mn Bit rate mode : Constant Bit rate : 384 Kbps Channel(s) : 6 channels Channel positions : Front: L C R, Side: L R, lfe Sampling rate : 48.0 KHz Bit depth : 16 bits Compression mode : Lossy Stream size : 263 MiB (13%) Title : Д.Пучков [Гоблин] Default : No Forced : No Audio #3 ID : 4 Format : aac Format/Info : Advanced Audio Codec Format profile : HE-aacv2 / HE-aac / LC Codec ID : A_aac Duration : 1h 35mn Channel(s) : 2 channels / 6 channels / 6 channels Channel positions : Front: L R / Front: L C R, Side: L R, lfe / Front: L C R, Side: L R, lfe Sampling rate : 48.0 KHz / 48.0 KHz / 24.0 KHz Compression mode : Lossy Title : Оригинал Default : No Forced : No

Активный

Статус

Мультитрекерный

Тип

2:40 назад

Активность

3.50 GB (3,763,310,029 байт)

Размер

21 Мая 2014, 18:59

Добавлен

Просмотров: 27, Взят: 40, Скачан: 8

Статистика

Данные о торренте

Сказали спасибо

Что бы получить доступ к скачиванию торрентов - откючите adBlock Реклама
Источник: http://katushka.net/torrents/films/feature/137310/